設為首頁 收藏本站   立即加入 登入
返回列表

[同人音樂] (例大祭8)(同人音楽)[ばんばんしー]秋満開の風に舞う(tak + cue)

外連圖片

【專輯名稱】(例大祭8)(同人音楽)[ばんばんしー]秋満開の風に舞う(tak + cue)
【檔案格式】RAR ->  tak
【檔案大小】197 MB
【下載空間】Mega

【收錄曲目】:

1. autumn road
2. かみさまの御心
3. 風吹けば
4. 秋色days
5. あいきゃっち
6. 秋の昼下がりに
7. 舞
8. 秋姉妹のなく頃に
9. 秋姉妹のなく頃に in the autumn sky
10. ごじつだん(秋色のそら)
11. 秋想ふ君へ




Used output format : Internal WAV Routines
Sample format      : 44.100 Hz; 16 Bit; Stereo


TOC of the extracted CD

     Track |   Start  |  Length  | Start sector | End sector
    ---------------------------------------------------------
        1  |  0:00.00 |  2:30.22 |         0    |    11271   
        2  |  2:30.22 |  3:00.00 |     11272    |    24771   
        3  |  5:30.22 |  2:57.34 |     24772    |    38080   
        4  |  8:27.56 |  2:41.43 |     38081    |    50198   
        5  | 11:09.24 |  0:10.68 |     50199    |    51016   
        6  | 11:20.17 |  2:41.03 |     51017    |    63094   
        7  | 14:01.20 |  2:08.27 |     63095    |    72721   
        8  | 16:09.47 |  3:32.00 |     72722    |    88621   
        9  | 19:41.47 |  4:23.02 |     88622    |   108348   
       10  | 24:04.49 |  3:30.58 |    108349    |   124156   
       11  | 27:35.32 |  2:56.21 |    124157    |   137377   


本帖隱藏的內容需要積分高於 50 才可瀏覽
1

評分人數